Kolkata Bangla Movies

Baccha shoshur (2019) Bengali Movie 1080p Webdl x 264 AVC AAC [Evabei] – xclusive

195views

Baccha Shoshur is an 2019 Indian Bengali language comedy drama film directed by Biswarup Biswas. Written by Pavel, the film features Jeet, Koushani Mukherjee, Aman Mehra and Chiranjit Chakraborty along with Biswarup Biswasin the leading roles. The film was released on 8 February 2019.

Complete name                            : H:Baccha shoshur [2019] Beng. Movie 1080p Webdl x 264 AVC AAC [Cinemaghar] – xclusive Baccha shoshur [2019] Beng. Movie 1080p Webdl x 264 AVC AAC [Cinemaghar] – xclusive .mkv
Format                                   : Matroska
Format version                           : Version 4
File size                                : 1.90 GiB
Duration                                 : 1 h 59 min
Overall bit rate                         : 2 277 kb/s
Movie name                               : Baccha shoshur [2019] Beng. Movie 1080p Webdl x 264 AVC AAC [Cinemaghar] – xclusive
Encoded date                             : UTC 2019-05-31 19:15:06
Writing application                      : mkvmerge v34.0.0 (‘Sight and Seen’) 64-bit
Writing library                          : libebml v1.3.7 + libmatroska v1.5.0

Video
ID                                       : 1
Format                                   : AVC
Format/Info                              : Advanced Video Codec
Format profile                           : High@L4
Format settings                          : CABAC / 4 Ref Frames
Format settings, CABAC                   : Yes
Format settings, Reference frames        : 4 frames
Format settings, GOP                     : M=4, N=50
Codec ID                                 : V_MPEG4/ISO/AVC
Duration                                 : 1 h 59 min
Bit rate                                 : 2 200 kb/s
Width                                    : 1 920 pixels
Height                                   : 1 080 pixels
Display aspect ratio                     : 16:9
Frame rate mode                          : Constant
Frame rate                               : 25.000 FPS
Color space                              : YUV
Chroma subsampling                       : 4:2:0
Bit depth                                : 8 bits
Scan type                                : Progressive
Bits/(Pixel*Frame)                       : 0.042
Stream size                              : 1.82 GiB (96%)
Title                                    : Cinemaghar
Writing library                          : x264 core 152 r2854 e9a5903
Default                                  : Yes
Forced                                   : No

Audio
ID                                       : 2
Format                                   : AAC LC
Format/Info                              : Advanced Audio Codec Low Complexity
Codec ID                                 : A_AAC-2
Duration                                 : 1 h 59 min
Bit rate                                 : 96.0 kb/s
Channel(s)                               : 2 channels
Channel layout                           : L R
Sampling rate                            : 48.0 kHz
Frame rate                               : 46.875 FPS (1024 SPF)
Compression mode                         : Lossy
Stream size                              : 83.2 MiB (4%)
Title                                    : Cinemaghar
Default                                  : Yes
Forced                                   : No

Download Baccha Shosur Full Movie

Leave a Response